#TITLE:One;
#SUBTITLE:;
#ARTIST:Epik High ft. Jisun;
#TITLETRANSLIT:One;
#SUBTITLETRANSLIT:;
#ARTISTTRANSLIT:Epik High ft. Jisun;
#CREDIT:Thu Sau , 16-1-2009;
#BANNER:One-bn.jpg;
#BACKGROUND:;
#LYRICSPATH:;
#CDTITLE:one.png;
#MUSIC:One.mp3;
#OFFSET:3.820;
#SAMPLESTART:65.020;
#SAMPLELENGTH:20.000;
#SELECTABLE:YES;
#DISPLAYBPM:135.000;
#BPMS:0.000=135.000,12.000=270.000,12.625=65.500,12.938=270.000,13.000=135.000,92.000=270.000,92.625=65.500,92.938=270.000,93.000=135.000,153.000=270.000,153.375=66.499,154.000=96.999,155.000=117.499,156.000=135.059,224.000=65.499,226.000=135.099,318.000=269.999,318.375=65.499,319.000=96.999,320.000=117.499,321.000=135.099,448.250=269.999,448.750=65.499,449.000=134.999;
#STOPS:;
#BGCHANGES:;
// cache tags:
#FIRSTBEAT:9.000;
#LASTBEAT:517.000;
#SONGFILENAME:Songs/Music V.I.P ^_^/One/One.sm;
#HASMUSIC:1;
#HASBANNER:1;
#MUSICLENGTH:230.068;
// end cache tags

//---------------dance-single - ----------------
#NOTES:
     dance-single:
     :
     Hard:
     15:
     1.000,1.000,1.000,0.291,0.811,1309.000,438.000,67.000,4.000,117.000:
0000
0000
0000
0000
,
0000
0000
0000
0000
,
0000
0000
0001
0010
0001
0010
0001
0010
,
1101
0000
1110
1000
1100
0010
1001
0001
,
0101
0010
1110
0010
0101
0001
1001
0100
,
1010
0010
1011
0100
1100
0010
0101
0010
,
0110
0000
0010
0000
1110
0000
1000
0000
0100
0000
1000
0001
0010
1000
0100
1001
,
0111
1010
1110
0100
1100
0010
1001
0010
,
0101
1000
1100
0010
1100
0010
0101
0001
,
1010
0100
0101
0001
0110
0100
1010
1000
,
0101
0010
1001
0010
0101
0001
0110
0010
,
1001
0010
0101
0010
0110
1000
1001
0010
,
1001
0100
0011
0010
1010
1000
1010
0100
,
1100
0010
0101
0100
1001
0001
1010
0100
,
1010
0001
1100
0000
1100
0000
1100
0000
,
1101
0000
0001
0000
1110
0001
0100
0010
0101
0100
1000
0010
1001
0010
0100
0010
,
1100
0000
0011
1100
0000
0000
0101
1000
0110
0010
0001
0010
1100
0001
1000
0100
,
1001
0010
0001
0100
0000
0000
1000
0000
1010
0001
0010
0001
0110
0001
0100
1000
,
0101
0010
0010
0100
1000
0100
0100
1000
0101
0001
1010
0010
1001
0100
1010
0000
,
0101
1010
1020
0100
2000
0130
0002
3100
,
1110
1003
2100
0010
0002
3100
0200
1003
,
1011
0000
1300
0000
0111
0000
1000
0010
1100
0100
0010
0001
0101
0010
1001
1000
,
0111
0010
1010
0000
0101
0000
1010
0000
,
0101
0000
0000
0000
1110
0000
0101
0000
1010
0000
1000
0000
1010
0001
0100
0010
,
0100
0000
1110
0000
0111
0000
0101
0000
1010
0001
0100
0010
1001
0000
0101
0000
,
1010
0000
1110
0000
0111
0000
0001
0000
1001
0000
1000
0001
1010
0001
1000
0100
,
1000
0000
1110
0000
0111
0000
0101
0000
1010
0100
0001
0100
1010
0001
0110
0000
,
1110
0000
1010
0000
0111
0000
0101
0000
1010
0100
0001
0010
1100
0000
0101
0000
,
1110
0000
0101
0000
1100
0010
0001
0100
1010
0000
1000
0100
1001
0000
0110
0000
,
0111
0000
1101
0000
1010
0001
1010
0001
1000
0010
0100
0010
1100
0000
0001
0000
,
1010
0000
0100
0001
0010
0100
1000
0100
0100
1000
0010
0000
0100
0000
0010
0000
,
0000
0000
2000
0000
0002
3000
2000
0003
,
0002
3000
0200
0003
0020
0300
0200
0030
,
0020
0300
2000
0030
0002
3000
2000
0003
,
0020
3000
2000
0030
0002
3000
2000
0003
,
0002
3000
2010
0103
0021
3100
0201
1030
,
1002
0310
2010
0103
0012
3100
2010
0103
,
0021
3001
0201
1030
1010
0301
0110
1000
,
0101
0000
1000
0000
0220
0000
M00M
0000
0000
0000
0000
0000
0000
0000
0000
0330
,
1011
0000
1000
0001
1100
0000
0010
0000
1001
0000
0010
0000
0101
0000
0010
0000
,
1100
0100
1100
0010
1001
0010
1010
0100
,
1021
0000
1000
0100
0001
1000
0001
0100
1000
0001
0100
0001
1100
0000
0031
0000
,
1001
0010
0010
0100
1010
0001
0100
0000
1100
0000
0100
0000
1001
0000
0010
0000
,
1011
0100
1001
0100
0101
0010
1001
0001
,
0101
0010
1100
0010
1010
1000
1100
0010
,
0102
0000
1000
0010
0100
1000
0100
0010
0100
0000
0100
0000
1103
0000
0010
0000
,
1010
0100
0001
0100
1010
0000
0100
0000
0001
0010
0010
0100
0010
0010
0001
0001
,
1020
0100
1000
0100
0001
0100
1000
0100
0001
0100
1000
0001
1000
0100
1000
0001
,
0100
0001
1000
0001
1000
0100
0001
1000
0100
1030
0100
0001
1000
0100
0010
0100
,
0012
0100
0010
1000
0010
1000
0010
0100
1000
0010
0100
0010
1100
0003
0210
1000
,
0001
1000
0010
1000
0001
0010
0001
1000
0010
0001
1300
0001
1010
0010
1001
0010
,
2001
0100
0010
0001
0100
0010
0100
0001
0010
0001
0100
0010
0100
0001
0010
0001
,
0100
0010
0001
0100
0001
0100
0001
0010
0100
0001
3100
0010
0101
1000
0010
0001
,
1200
0010
1000
0001
0010
1000
0001
1000
0001
1000
0010
0001
1310
0001
0120
1000
,
0101
1000
0001
0100
0001
0100
1000
0100
0031
0000
0000
0000
1100
0000
1100
0000
,
0011
0100
1010
0001
0110
1000
0101
0101
,
0020
1000
0100
1000
0100
1000
0131
0000
1011
0100
0010
0001
1010
0100
1000
0100
,
1001
0100
0010
0001
1100
0010
1000
0100
0011
1000
0100
0010
1001
0100
1000
0001
,
0110
1000
0100
0010
0101
1000
0001
0010
1100
0001
0010
0001
0110
1000
0010
0001
,
1010
0100
1000
0001
0110
1000
0001
0010
1100
0010
0001
0100
1010
0001
0010
0100
,
0011
0000
1000
0000
0101
0000
0010
0000
1200
0001
0010
0000
0001
1000
0000
0000
,
1001
0010
1010
0001
0311
1000
0110
0010
,
1001
0000
0010
0000
1010
0000
0100
0000
0101
0010
0001
0100
1001
0100
0010
0001
,
1100
0010
1001
0100
0011
0000
0110
0000
,
1100
0000
0000
0000
1000
0000
0001
0000
1101
0010
0001
0010
0101
0000
0010
0000
,
1100
0001
0000
1000
0110
0000
1000
0000
0101
1000
0010
0100
1001
0100
0010
0001
,
1100
0010
0000
0001
1010
0000
0100
0000
1001
0000
0010
0000
1100
0000
0010
0000
,
0110
0000
0001
0000
1010
0000
0100
0000
2001
0000
0100
0010
0001
0000
0001
0010
,
0100
0000
0100
0000
0110
0000
0001
0000
3101
0000
1000
0010
0110
0000
0001
0100
,
1010
0010
1000
0000
1001
0000
0010
0000
1100
0000
0001
1000
0110
0000
1000
0100
,
0101
0010
0001
0000
0110
0000
1000
0010
1100
0010
1000
0100
1001
0000
0010
0100
,
1001
0100
0010
0100
1010
0100
1000
0010
0101
0000
0100
0010
0001
0010
0100
0010
,
0001
0010
0100
0010
0100
1000
0100
0000
0011
0000
0010
0000
0110
0000
0100
0000
,
1100
1000
1010
0100
0101
0010
0011
1000
,
0110
1000
0101
0010
1001
0010
1010
0100
,
0101
0001
0011
0100
1100
1000
0110
0001
,
1010
0010
0101
1000
1100
0110
0011
1100
,
0101
1010
0110
1001
0110
0011
1100
0110
,
1100
0101
1001
0110
0011
1010
1100
0110
,
1001
1100
0101
1010
0220
M00M
0000
0000
,
0000
0000
0000
0330
1011
0000
0001
1000
0011
0000
0100
0000
1001
0000
0100
0000
,
1010
0100
0011
1000
0101
1000
0110
0001
,
1100
0000
0010
0000
1012
0000
1000
0100
0010
1000
0010
0100
1000
0010
0100
0010
,
1103
0000
0010
0000
1010
0100
0100
0010
0101
1000
0100
0000
0011
0000
1000
0000
,
0101
0100
1011
0100
1001
0010
1100
0001
,
1010
0100
0011
0100
1100
0001
0110
1000
,
1100
0000
0010
0000
2010
0000
0001
0100
0010
0001
0010
0001
0100
0000
0010
0000
,
0011
0000
0100
0000
3101
0010
1000
0100
0110
0000
0010
0000
1000
0100
0100
0010
,
1000
1000
0100
0100
2011
0100
0010
0001
0100
0010
0100
0001
0100
0010
0100
0001
,
0010
0001
0100
0001
3100
0001
0100
1000
0010
0100
0001
1000
0010
1000
0010
0001
,
0100
1000
0001
1000
0102
0010
0100
1000
0010
1000
0100
0010
1000
0100
0010
0100
,
1010
0003
0210
0001
0010
1000
0001
0010
1000
0001
0010
0001
1000
0010
1300
0100
,
0011
0001
1010
0100
2011
0100
0001
0010
0100
0010
0100
0001
0010
0001
0010
0100
,
0001
0100
0010
0100
0010
0001
0010
0100
0001
0100
0001
0100
0010
0100
3001
0010
,
1100
0100
0010
0001
0210
1000
0010
0001
1000
0001
0010
1000
0010
1000
0001
0010
,
1301
0000
0100
0000
0011
0000
0100
0000
1020
0000
0001
0000
1000
0000
0100
0000
1000
0000
0001
0000
1000
0000
0100
0000
0031
0100
0010
1000
0001
0100
0010
0100
,
1001
0000
0010
0000
0100
0010
0001
0000
1010
0000
0000
0000
0000
0000
0000
0000
1010
0000
0000
0000
0101
0000
0000
0000
0000
0000
0000
0000
0101
0000
0000
0000
,
1010
0000
1101
0000
1010
0101
0000
0101
,
1010
0000
0111
0000
1100
0101
0000
0101
,
1100
0000
1011
0000
0011
0110
0000
0110
,
0011
0000
0111
0000
0101
1100
0000
1100
,
0101
0000
0111
0000
0011
0110
0000
0110
,
0011
0000
1101
0000
1100
0110
0000
0110
,
1100
0000
0121
0000
0101
1100
0000
1100
,
0101
0000
1131
1000
0100
0010
0001
0010
,
0100
1000
1101
0010
0100
1000
0100
0010
,
0001
0010
1101
0001
0010
0100
1000
0100
,
0010
0001
1110
1000
0010
0100
0001
0010
,
0100
1000
0111
0001
0100
0010
1100
0001
,
0100
0010
0111
1000
0100
1000
1010
0001
,
0100
0010
1011
0100
1001
0100
1100
0010
,
1001
0000
0001
0000
0011
0000
0011
0000
0011
0000
0011
0000
0011
0110
1100
0110
,
0011
1100
0000
0000
1110
0000
0100
0000
1010
0000
0001
0000
0101
0000
0010
0000
,
1100
0010
1110
1000
1100
0001
1001
0010
,
1100
0000
0010
0000
1120
0000
0100
0001
1000
0100
0001
0100
1000
0100
1000
0001
,
1100
0000
0031
0000
1001
0010
0010
0100
1010
0001
0100
0000
1100
0000
0100
0000
,
1001
0010
1011
0100
1100
0010
1001
0100
,
1010
0010
0101
0010
1100
0100
1010
1000
,
1100
0000
0100
0000
1002
0000
0100
0010
1000
0010
1000
0100
1010
0000
0100
0000
,
1010
0000
0100
0000
2203
0000
0000
0000
0000
0000
0000
3300
1010
0000
1001
0000
,
1001
1001
0010
0010
1020
0100
1000
0100
0001
0100
1000
0100
0001
0100
1000
0001
,
1000
0100
1000
0001
1100
0001
1000
0001
1000
0100
0001
1000
0101
1030
0100
0001
,
1010
0100
0001
0100
2010
0001
0100
0001
0110
0001
0010
0100
0010
0001
0100
0010
,
3101
0001
0210
0001
1010
0001
1000
0010
1001
0010
0001
1000
0011
1000
0310
0001
,
1010
0100
0010
0001
2010
0100
0010
0001
0101
0010
0100
0001
0110
0001
0100
0001
,
0110
0001
0010
0100
0011
0100
0001
0010
0001
0100
0001
0010
0100
0001
3100
0010
,
0101
1000
0100
0010
1201
0010
1000
0001
0011
1000
0001
1000
0011
1000
0010
0001
,
1310
0000
0001
0000
1020
0000
0001
0000
1100
0000
0001
0000
0100
0000
1000
0000
1100
0000
0001
0000
1000
0000
0001
1000
0031
0100
0010
1000
0010
0001
0100
0010
,
1000
0110
0110
0110
0220
0000
0000
0000
0000
0000
0000
0000
0000
0000
0000
0000
,
0000
0330
0000
0000
;

//---------------dance-solo - ----------------
#NOTES:
     dance-solo:
     :
     Hard:
     10:
     0.723,0.822,1.000,0.017,0.035,615.000,428.000,4.000,0.000,76.000:
000000
000000
000000
000000
,
000000
000000
000000
000000
,
000000
000000
110000
000011
110000
000011
110000
000011
,
111111
000000
110000
000001
000100
011000
100000
000110
,
010000
000000
110000
000000
000001
100001
000010
010100
,
100000
000000
011000
000000
000100
110000
000010
100001
,
001000
000000
000000
000000
100001
000000
000000
000000
000000
000000
100000
010000
000100
001000
000100
001000
,
100001
100001
100001
000010
010100
101000
000100
100010
,
011000
000001
100001
000010
010100
101000
000010
100001
,
010001
000010
101000
000100
010010
100001
000010
100001
,
010100
001000
100001
010000
010010
101000
000010
100100
,
011000
000100
100001
000010
010100
100000
101000
000100
,
100010
011000
100001
000001
010010
010100
101000
000010
,
100100
010001
101000
000010
001001
000010
100001
001000
,
100010
100100
110010
100000
100000
011001
000001
000001
,
100110
001100
101000
000001
100100
001000
010010
001000
,
101000
010000
000011
000100
101000
000010
011000
100000
,
000101
001000
110000
000001
100001
001000
000101
100000
,
010100
100000
101000
000100
001010
000100
110000
000100
,
010001
000000
110000
000110
110000
000011
110000
000110
,
110100
000000
110000
000110
011000
000110
110000
000110
,
101001
000000
101000
000011
101000
000110
101000
000011
,
101001
011000
100001
000110
100001
011000
101010
000000
,
000000
000000
111111
001101
011000
000000
110100
000110
,
000000
100101
000000
101100
010010
000000
101001
010100
,
110000
000110
000000
010101
011000
000000
101100
000110
,
000000
100011
000000
001110
110000
000000
111000
000011
,
000000
110100
000000
000111
110000
000000
110010
011000
,
001100
100100
000000
000111
001010
000000
011100
110000
,
000011
011000
000000
101001
010010
000000
101100
011000
,
000000
001101
111111
000000
000000
000000
000000
000000
,
000000
000000
110000
001000
110000
000100
110000
000010
,
110000
000001
001100
010000
001100
100000
001100
000010
,
001100
000001
100100
010000
100100
001000
100100
000010
,
100100
000001
011000
100000
011000
000100
011000
000010
,
011000
000001
010100
000010
010100
000001
010100
100000
,
010100
001000
101000
010000
101000
000100
101000
000010
,
101000
000001
100100
001000
100100
010000
100100
000010
,
100100
000001
100100
000000
000000
000000
000000
000000
,
110000
000100
000011
100000
010100
000010
101000
000100
,
001001
010000
100010
000100
101000
000010
000011
001000
,
110000
011000
001100
000110
000011
000110
001100
011000
,
100001
010000
001100
000010
110000
000100
000011
010000
,
000011
000110
001100
011000
110000
011000
001100
000110
,
100001
010000
000110
100000
001010
100000
000101
001000
,
110000
011000
001100
000110
000011
000110
111100
011000
,
000000
000000
000000
000000
000000
000000
000000
000000
000010
000000
000010
000000
001010
001010
001010
001010
,
110000
000001
000100
100000
001000
000010
010000
000001
,
001100
100000
000100
010000
000010
000001
001000
000010
,
010100
100000
000001
000100
001000
100000
000010
001000
,
100100
010000
000001
000100
010000
100000
001000
000100
,
100010
010000
000001
001000
100000
000100
100000
000010
,
010100
001000
100000
000001
001000
100000
000010
100000
,
000101
010000
000100
000010
100000
000001
001000
000010
,
011000
000000
100000
000000
000001
000000
000100
000000
100000
100000
100000
100000
000100
000100
000100
000100
,
101111
000000
110001
001100
000000
011010
110000
000000
,
111101
000000
001011
010100
000000
100110
011000
000000
,
111011
000000
111000
000110
000000
000111
011000
000000
,
111110
000000
001011
101000
000000
111000
000101
000000
,
011111
000000
011100
000011
000000
111000
001010
000000
,
110111
000000
100101
001010
000000
101010
001100
000000
,
101111
000000
101100
000011
000000
011100
100010
000000
,
111011
000000
110100
001010
000000
010110
011000
000000
,
111101
110000
011000
001100
000110
000011
000110
011000
,
111110
000011
000110
011000
110000
011000
001100
000110
,
011111
011000
110000
011000
001100
000110
000011
000110
,
101111
000110
000011
000110
001100
011000
110000
011000
,
110111
011000
110000
000011
001100
011000
000110
100001
,
111011
001100
110000
000011
001100
000110
011000
110000
,
111110
000101
010100
101000
000110
011000
100001
000101
,
010010
000000
101000
000000
010100
000000
100010
000000
100000
010000
001000
000100
000010
000001
000000
000000
,
110111
000010
010100
000001
011000
100000
000110
010000
,
101000
000001
001010
010000
000011
001000
110000
000100
,
000011
000110
001100
011000
110000
011000
001100
000110
,
110000
000001
101000
000100
100010
010000
001100
100000
,
010001
000010
001100
100000
001010
000001
100010
000100
,
110000
000010
010001
001000
100100
000010
000101
010000
,
000011
000110
001100
011000
110000
011000
001100
000110
,
100010
000000
000000
000000
000000
000000
000000
000000
110000
000000
110000
000000
110000
001100
000011
110000
,
001101
011000
000110
110000
011100
100001
001100
000110
,
110001
001100
110000
001001
011100
100010
000101
010100
,
111000
000011
000101
101000
001110
100001
010100
000101
,
111000
001100
100100
100010
000111
010100
001001
110000
,
100110
010001
010100
101000
000111
011000
100100
000101
,
011100
100010
011000
001001
100011
010100
110000
001010
,
110100
000011
001010
010100
100011
011000
000101
101000
,
020020
000000
000000
000000
000000
000000
000000
000000
000000
000000
000000
000000
031130
001100
001100
001100
,
002200
000000
000000
000000
,
003300
000000
000000
000000
;

//---------------dance-single - ----------------
#NOTES:
     dance-single:
     :
     Medium:
     9:
     0.000,0.000,0.000,0.000,0.000,0.000,0.000,0.000,0.000,0.000:
0000
0000
0000
0000
;
